  0
SECTION
  2
HEADER
  9
$ACADVER
  1
AC1009
  9
$INSBASE
 10
0.0
 20
0.0
 30
0.0
  9
$EXTMIN
 10
416.702808
 20
81.440225
 30
0.0
  9
$EXTMAX
 10
1148.008427
 20
1585.612228
 30
0.0
  9
$LIMMIN
 10
0.0
 20
0.0
  9
$LIMMAX
 10
1188.0
 20
1680.0
  9
$ORTHOMODE
 70
     1
  9
$REGENMODE
 70
     1
  9
$FILLMODE
 70
     1
  9
$QTEXTMODE
 70
     0
  9
$MIRRTEXT
 70
     1
  9
$DRAGMODE
 70
     2
  9
$LTSCALE
 40
1.0
  9
$OSMODE
 70
     0
  9
$ATTMODE
 70
     1
  9
$TEXTSIZE
 40
15.0
  9
$TRACEWID
 40
1.0
  9
$TEXTSTYLE
  7
STANDARD
  9
$CLAYER
  8
10
  9
$CELTYPE
  6
BYLAYER
  9
$CECOLOR
 62
   256
  9
$DIMSCALE
 40
1.0
  9
$DIMASZ
 40
2.5
  9
$DIMEXO
 40
1.0
  9
$DIMDLI
 40
7.0
  9
$DIMRND
 40
0.0
  9
$DIMDLE
 40
0.0
  9
$DIMEXE
 40
1.0
  9
$DIMTP
 40
0.0
  9
$DIMTM
 40
0.0
  9
$DIMTXT
 40
3.0
  9
$DIMCEN
 40
0.0
  9
$DIMTSZ
 40
0.0
  9
$DIMTOL
 70
     0
  9
$DIMLIM
 70
     0
  9
$DIMTIH
 70
     0
  9
$DIMTOH
 70
     0
  9
$DIMSE1
 70
     0
  9
$DIMSE2
 70
     0
  9
$DIMTAD
 70
     1
  9
$DIMZIN
 70
     8
  9
$DIMBLK
  1

  9
$DIMASO
 70
     1
  9
$DIMSHO
 70
     1
  9
$DIMPOST
  1

  9
$DIMAPOST
  1

  9
$DIMALT
 70
     0
  9
$DIMALTD
 70
     2
  9
$DIMALTF
 40
25.4
  9
$DIMLFAC
 40
1.0
  9
$DIMTOFL
 70
     1
  9
$DIMTVP
 40
1.0
  9
$DIMTIX
 70
     0
  9
$DIMSOXD
 70
     0
  9
$DIMSAH
 70
     1
  9
$DIMBLK1
  1
_OPEN
  9
$DIMBLK2
  1
_OPEN
  9
$DIMSTYLE
  2
GEN-ISO
  9
$DIMCLRD
 70
     0
  9
$DIMCLRE
 70
   256
  9
$DIMCLRT
 70
     2
  9
$DIMTFAC
 40
0.71
  9
$DIMGAP
 40
1.0
  9
$LUNITS
 70
     2
  9
$LUPREC
 70
     2
  9
$SKETCHINC
 40
1.0
  9
$FILLETRAD
 40
2.5
  9
$AUNITS
 70
     0
  9
$AUPREC
 70
     0
  9
$MENU
  1
.
  9
$ELEVATION
 40
0.0
  9
$PELEVATION
 40
0.0
  9
$THICKNESS
 40
0.0
  9
$LIMCHECK
 70
     0
  9
$BLIPMODE
 70
     0
  9
$CHAMFERA
 40
2.5
  9
$CHAMFERB
 40
2.5
  9
$SKPOLY
 70
     0
  9
$TDCREATE
 40
2451338.739381
  9
$TDUPDATE
 40
2451550.689655
  9
$TDINDWG
 40
0.066747
  9
$TDUSRTIMER
 40
0.066747
  9
$USRTIMER
 70
     1
  9
$ANGBASE
 50
0.0
  9
$ANGDIR
 70
     0
  9
$PDMODE
 70
     3
  9
$PDSIZE
 40
5.0
  9
$PLINEWID
 40
0.0
  9
$COORDS
 70
     2
  9
$SPLFRAME
 70
     0
  9
$SPLINETYPE
 70
     6
  9
$SPLINESEGS
 70
     8
  9
$ATTDIA
 70
     1
  9
$ATTREQ
 70
     1
  9
$HANDLING
 70
     1
  9
$HANDSEED
  5
1457
  9
$SURFTAB1
 70
     6
  9
$SURFTAB2
 70
     6
  9
$SURFTYPE
 70
     6
  9
$SURFU
 70
     6
  9
$SURFV
 70
     6
  9
$UCSNAME
  2

  9
$UCSORG
 10
0.0
 20
0.0
 30
0.0
  9
$UCSXDIR
 10
1.0
 20
0.0
 30
0.0
  9
$UCSYDIR
 10
0.0
 20
1.0
 30
0.0
  9
$PUCSNAME
  2

  9
$PUCSORG
 10
0.0
 20
0.0
 30
0.0
  9
$PUCSXDIR
 10
1.0
 20
0.0
 30
0.0
  9
$PUCSYDIR
 10
0.0
 20
1.0
 30
0.0
  9
$USERI1
 70
     0
  9
$USERI2
 70
     0
  9
$USERI3
 70
     0
  9
$USERI4
 70
     0
  9
$USERI5
 70
     0
  9
$USERR1
 40
0.0
  9
$USERR2
 40
0.0
  9
$USERR3
 40
0.0
  9
$USERR4
 40
0.0
  9
$USERR5
 40
0.0
  9
$WORLDVIEW
 70
     1
  9
$SHADEDGE
 70
     3
  9
$SHADEDIF
 70
    70
  9
$TILEMODE
 70
     1
  9
$MAXACTVP
 70
    48
  9
$PLIMCHECK
 70
     0
  9
$PEXTMIN
 10
1.000000E+020
 20
1.000000E+020
 30
1.000000E+020
  9
$PEXTMAX
 10
-1.000000E+020
 20
-1.000000E+020
 30
-1.000000E+020
  9
$PLIMMIN
 10
0.0
 20
0.0
  9
$PLIMMAX
 10
420.0
 20
297.0
  9
$UNITMODE
 70
     0
  9
$VISRETAIN
 70
     1
  9
$PLINEGEN
 70
     0
  9
$PSLTSCALE
 70
     1
  0
ENDSEC
  0
SECTION
  2
TABLES
  0
TABLE
  2
VPORT
 70
     2
  0
VPORT
  2
*ACTIVE
 70
     0
 10
0.0
 20
0.0
 11
1.0
 21
1.0
 12
782.355613
 22
833.526223
 13
0.0
 23
0.0
 14
1.0
 24
1.0
 15
10.0
 25
10.0
 16
0.0
 26
0.0
 36
1.0
 17
0.0
 27
0.0
 37
0.0
 40
1788.771518
 41
1.516927
 42
50.0
 43
0.0
 44
0.0
 50
0.0
 51
0.0
 71
     0
 72
   100
 73
     1
 74
     1
 75
     0
 76
     0
 77
     0
 78
     2
  0
ENDTAB
  0
TABLE
  2
LTYPE
 70
     6
  0
LTYPE
  2
CONTINUOUS
 70
     0
  3
Solid line
 72
    65
 73
     0
 40
0.0
  0
LTYPE
  2
ACANSTGBM
 70
     0
  3
__ . . __ . .
 72
    65
 73
     6
 40
9.0
 49
4.0
 49
-1.0
 49
1.0
 49
-1.0
 49
1.0
 49
-1.0
  0
LTYPE
  2
ACANSTGLM
 70
     0
  3
_ _ _ _ _
 72
    65
 73
     2
 40
3.0
 49
2.0
 49
-1.0
  0
ENDTAB
  0
TABLE
  2
LAYER
 70
    12
  0
LAYER
  2
0
 70
     0
 62
     7
  6
CONTINUOUS
  0
LAYER
  2
10
 70
     0
 62
     2
  6
CONTINUOUS
  0
LAYER
  2
5
 70
     0
 62
     3
  6
CONTINUOUS
  0
LAYER
  2
DEFPOINTS
 70
     0
 62
     7
  6
CONTINUOUS
  0
ENDTAB
  0
TABLE
  2
STYLE
 70
     3
  0
STYLE
  2
STANDARD
 70
     0
 40
0.0
 41
1.0
 50
0.0
 71
     0
 42
15.0
  3
geniso.shx
  4
extfont.shx
  0
STYLE
  2
ACANSTS
 70
     0
 40
1.0
 41
1.0
 50
0.0
 71
     0
 42
2.5
  3
romans.shx
  4
bigfont.shx
  0
STYLE
  2
ACANSGDT
 70
     0
 40
0.0
 41
1.0
 50
0.0
 71
     0
 42
2.5
  3
amgdtans.shx
  4

  0
ENDTAB
  0
TABLE
  2
VIEW
 70
     0
  0
ENDTAB
  0
TABLE
  2
UCS
 70
     0
  0
ENDTAB
  0
TABLE
  2
APPID
 70
    22
  0
APPID
  2
ACAD
 70
     0
  0
APPID
  2
MCAD_NO_VIS
 70
     0
  0
APPID
  2
ACAD_TEMP_GRAPHIC
 70
     0
  0
APPID
  2
AD_DRAW
 70
     0
  0
APPID
  2
DESIGNERASSEMBLIES
 70
     0
  0
APPID
  2
ASURF_PCURVE_APPNAME
 70
     0
  0
APPID
  2
GENIUS_GENCFG_13
 70
     0
  0
APPID
  2
GENIUS_GE3CFG0_13
 70
     0
  0
APPID
  2
GENIUS_GENCFG0_13
 70
     0
  0
APPID
  2
GENIUS_GENCFG1_13
 70
     0
  0
APPID
  2
GENIUS_GENCFG2_13
 70
     0
  0
APPID
  2
GENIUS_GENCFG3_13
 70
     0
  0
APPID
  2
GENIUS_GENCFG4_13
 70
     0
  0
APPID
  2
GENIUS_GEVCFG0_13
 70
     0
  0
APPID
  2
GENIUS_GENOENT_13
 70
     0
  0
APPID
  2
GENIUS_GE3SECT_13
 70
     0
  0
APPID
  2
GRPNAME
 70
     0
  0
APPID
  2
GENIUS_GENODEF_13
 70
     0
  0
APPID
  2
GENIUS_GENOBJ-N-CEN_13
 70
     0
  0
APPID
  2
GENIUS_GENDTOL_13
 70
     0
  0
APPID
  2
GEV_VCCNULL_SWITCH_OFF
 70
     0
  0
APPID
  2
GENIUS_GENDREL_13
 70
     0
  0
ENDTAB
  0
TABLE
  2
DIMSTYLE
 70
     2
  0
DIMSTYLE
  2
STANDARD
 70
     0
  3

  4

  5

  6

  7

 40
1.0
 41
0.18
 42
0.0625
 43
0.38
 44
0.18
 45
0.0
 46
0.0
 47
0.0
 48
0.0
140
0.18
141
0.09
142
0.0
143
25.4
144
1.0
145
0.0
146
1.0
147
0.09
 71
     0
 72
     0
 73
     1
 74
     1
 75
     0
 76
     0
 77
     0
 78
     0
170
     0
171
     2
172
     0
173
     0
174
     0
175
     0
176
     0
177
     0
178
     0
  0
DIMSTYLE
  2
GEN-ISO
 70
     0
  3

  4

  5

  6
_OPEN
  7
_OPEN
 40
0.0
 41
2.5
 42
1.0
 43
7.0
 44
1.0
 45
0.0
 46
0.0
 47
0.0
 48
0.0
140
3.0
141
0.0
142
0.0
143
25.4
144
1.0
145
1.0
146
0.71
147
1.0
 71
     0
 72
     0
 73
     0
 74
     0
 75
     0
 76
     0
 77
     1
 78
     8
170
     0
171
     2
172
     1
173
     1
174
     0
175
     0
176
     0
177
   256
178
     2
  0
ENDTAB
  0
ENDSEC
  0
SECTION
  2
BLOCKS
  0
BLOCK
  8
0
  2
$MODEL_SPACE
 70
     0
 10
0.0
 20
0.0
 30
0.0
  3
$MODEL_SPACE
  1

  0
ENDBLK
  5
1A
  8
0
  0
BLOCK
 67
     1
  8
0
  2
$PAPER_SPACE
 70
     0
 10
0.0
 20
0.0
 30
0.0
  3
$PAPER_SPACE
  1

  0
ENDBLK
  5
17
 67
     1
  8
0
  0
BLOCK
  8
0
  2
*U0
 70
     1
 10
0.0
 20
0.0
 30
0.0
  3
*U0
  1

  0
ENDBLK
  5
7A
  8
0
  0
BLOCK
  8
0
  2
_OPEN
 70
     0
 10
0.0
 20
0.0
 30
0.0
  3
_OPEN
  1

  0
LINE
  5
230
  8
0
  6
BYBLOCK
 62
     0
 10
-1.0
 20
0.166667
 30
0.0
 11
0.0
 21
0.0
 31
0.0
  0
LINE
  5
231
  8
0
  6
BYBLOCK
 62
     0
 10
0.0
 20
0.0
 30
0.0
 11
-1.0
 21
-0.166667
 31
0.0
  0
LINE
  5
232
  8
0
  6
BYBLOCK
 62
     0
 10
0.0
 20
0.0
 30
0.0
 11
-1.0
 21
0.0
 31
0.0
  0
ENDBLK
  5
234
  8
0
  0
BLOCK
  8
0
  2
*D2
 70
     1
 10
0.0
 20
0.0
 30
0.0
  3
*D2
  1

  0
LINE
  5
12F3
  8
0
  6
BYBLOCK
 10
576.101949
 20
864.206844
 30
0.0
 11
426.742382
 21
864.206844
 31
0.0
  0
LINE
  5
12F4
  8
0
  6
BYBLOCK
 10
609.851949
 20
134.706844
 30
0.0
 11
426.742382
 21
134.706844
 31
0.0
  0
LINE
  5
12F5
  8
0
  6
BYBLOCK
 62
     0
 10
427.742382
 20
861.706844
 30
0.0
 11
427.742382
 21
137.206844
 31
0.0
  0
INSERT
  5
12F6
  8
0
  6
BYBLOCK
 62
     0
  2
_OPEN
 10
427.742382
 20
864.206844
 30
0.0
 41
2.5
 42
2.5
 43
2.5
 50
90.0
  0
INSERT
  5
12F7
  8
0
  6
BYBLOCK
 62
     0
  2
_OPEN
 10
427.742382
 20
134.706844
 30
0.0
 41
2.5
 42
2.5
 43
2.5
 50
270.0
  0
TEXT
  8
0
  40
10
  5
1452
  62
2
  72
0
  71
0
 10
421.742
 20
486.457
 30
0.000000
  1
呼称寸法500mm
  0
POINT
  5
12F9
  8
DEFPOINTS
  6
BYBLOCK
 62
     0
 10
577.101949
 20
864.206844
 30
0.0
  0
POINT
  5
12FA
  8
DEFPOINTS
  6
BYBLOCK
 62
     0
 10
610.851949
 20
134.706844
 30
0.0
  0
POINT
  5
12FB
  8
DEFPOINTS
  6
BYBLOCK
 62
     0
 10
427.742382
 20
134.706844
 30
0.0
  0
ENDBLK
  5
12FC
  8
0
  0
BLOCK
  8
0
  2
*D3
 70
     1
 10
0.0
 20
0.0
 30
0.0
  3
*D3
  1

  0
LINE
  5
136D
  8
0
  6
BYBLOCK
 10
576.101949
 20
864.206844
 30
0.0
 11
426.742382
 21
864.206844
 31
0.0
  0
LINE
  5
136E
  8
0
  6
BYBLOCK
 10
606.101949
 20
1161.206844
 30
0.0
 11
426.742382
 21
1161.206844
 31
0.0
  0
LINE
  5
136F
  8
0
  6
BYBLOCK
 62
     0
 10
427.742382
 20
866.706844
 30
0.0
 11
427.742382
 21
1158.706844
 31
0.0
  0
INSERT
  5
1370
  8
0
  6
BYBLOCK
 62
     0
  2
_OPEN
 10
427.742382
 20
864.206844
 30
0.0
 41
2.5
 42
2.5
 43
2.5
 50
270.0
  0
INSERT
  5
1371
  8
0
  6
BYBLOCK
 62
     0
  2
_OPEN
 10
427.742382
 20
1161.206844
 30
0.0
 41
2.5
 42
2.5
 43
2.5
 50
90.0
  0
TEXT
  8
0
  40
10
  5
1453
  62
2
  72
0
  71
0
 10
421.742
 20
999.707
 30
0.000000
  1
300
  0
POINT
  5
1373
  8
DEFPOINTS
  6
BYBLOCK
 62
     0
 10
577.101949
 20
864.206844
 30
0.0
  0
POINT
  5
1374
  8
DEFPOINTS
  6
BYBLOCK
 62
     0
 10
607.101949
 20
1161.206844
 30
0.0
  0
POINT
  5
1375
  8
DEFPOINTS
  6
BYBLOCK
 62
     0
 10
427.742382
 20
1161.206844
 30
0.0
  0
ENDBLK
  5
1376
  8
0
  0
BLOCK
  8
0
  2
*D4
 70
     1
 10
0.0
 20
0.0
 30
0.0
  3
*D4
  1

  0
LINE
  5
1378
  8
0
  6
BYBLOCK
 10
585.601949
 20
1158.206844
 30
0.0
 11
585.601949
 21
1193.365326
 31
0.0
  0
LINE
  5
1379
  8
0
  6
BYBLOCK
 10
648.601949
 20
1158.206844
 30
0.0
 11
648.601949
 21
1193.365326
 31
0.0
  0
LINE
  5
137A
  8
0
  6
BYBLOCK
 62
     0
 10
588.101949
 20
1192.365326
 30
0.0
 11
646.101949
 21
1192.365326
 31
0.0
  0
INSERT
  5
137B
  8
0
  6
BYBLOCK
 62
     0
  2
_OPEN
 10
585.601949
 20
1192.365326
 30
0.0
 41
2.5
 42
2.5
 43
2.5
 50
180.0
  0
INSERT
  5
137C
  8
0
  6
BYBLOCK
 62
     0
  2
_OPEN
 10
648.601949
 20
1192.365326
 30
0.0
 41
2.5
 42
2.5
 43
2.5
  0
TEXT
  8
0
  40
10
  5
1454
  62
2
  72
0
  71
0
 10
617.102
 20
1185.37
 30
0.000000
  1
%%c63
  0
POINT
  5
137E
  8
DEFPOINTS
  6
BYBLOCK
 62
     0
 10
585.601949
 20
1157.206844
 30
0.0
  0
POINT
  5
137F
  8
DEFPOINTS
  6
BYBLOCK
 62
     0
 10
648.601949
 20
1157.206844
 30
0.0
  0
POINT
  5
1380
  8
DEFPOINTS
  6
BYBLOCK
 62
     0
 10
648.601949
 20
1192.365326
 30
0.0
  0
ENDBLK
  5
1381
  8
0
  0
BLOCK
  8
0
  2
*D5
 70
     1
 10
0.0
 20
0.0
 30
0.0
  3
*D5
  1

  0
LINE
  5
1383
  8
0
  6
BYBLOCK
 10
577.101949
 20
869.206844
 30
0.0
 11
577.101949
 21
1216.366551
 31
0.0
  0
LINE
  5
1384
  8
0
  6
BYBLOCK
 10
657.101949
 20
869.206844
 30
0.0
 11
657.101949
 21
1216.366551
 31
0.0
  0
LINE
  5
1385
  8
0
  6
BYBLOCK
 62
     0
 10
579.601949
 20
1215.366551
 30
0.0
 11
654.601949
 21
1215.366551
 31
0.0
  0
INSERT
  5
1386
  8
0
  6
BYBLOCK
 62
     0
  2
_OPEN
 10
577.101949
 20
1215.366551
 30
0.0
 41
2.5
 42
2.5
 43
2.5
 50
180.0
  0
INSERT
  5
1387
  8
0
  6
BYBLOCK
 62
     0
  2
_OPEN
 10
657.101949
 20
1215.366551
 30
0.0
 41
2.5
 42
2.5
 43
2.5
  0
TEXT
  8
0
  40
10
  5
1455
  62
2
  72
0
  71
0
 10
617.102
 20
1208.37
 30
0.000000
  1
%%c80
  0
POINT
  5
1389
  8
DEFPOINTS
  6
BYBLOCK
 62
     0
 10
577.101949
 20
868.206844
 30
0.0
  0
POINT
  5
138A
  8
DEFPOINTS
  6
BYBLOCK
 62
     0
 10
657.101949
 20
868.206844
 30
0.0
  0
POINT
  5
138B
  8
DEFPOINTS
  6
BYBLOCK
 62
     0
 10
657.101949
 20
1215.366551
 30
0.0
  0
ENDBLK
  5
138C
  8
0
  0
BLOCK
  8
0
  2
*D6
 70
     1
 10
0.0
 20
0.0
 30
0.0
  3
*D6
  1

  0
LINE
  5
140E
  8
0
  6
BYBLOCK
 10
624.351949
 20
308.470345
 30
0.0
 11
694.646551
 21
308.470345
 31
0.0
  0
LINE
  5
140F
  8
0
  6
BYBLOCK
 10
624.351949
 20
108.470345
 30
0.0
 11
694.646551
 21
108.470345
 31
0.0
  0
LINE
  5
1410
  8
0
  6
BYBLOCK
 62
     0
 10
693.646551
 20
305.970345
 30
0.0
 11
693.646551
 21
110.970345
 31
0.0
  0
INSERT
  5
1411
  8
0
  6
BYBLOCK
 62
     0
  2
_OPEN
 10
693.646551
 20
308.470345
 30
0.0
 41
2.5
 42
2.5
 43
2.5
 50
90.0
  0
INSERT
  5
1412
  8
0
  6
BYBLOCK
 62
     0
  2
_OPEN
 10
693.646551
 20
108.470345
 30
0.0
 41
2.5
 42
2.5
 43
2.5
 50
270.0
  0
TEXT
  8
0
  40
10
  5
1456
  62
2
  72
0
  71
0
 10
687.646
 20
195.470
 30
0.000000
  1
200
  0
POINT
  5
1414
  8
DEFPOINTS
  6
BYBLOCK
 62
     0
 10
623.351949
 20
308.470345
 30
0.0
  0
POINT
  5
1415
  8
DEFPOINTS
  6
BYBLOCK
 62
     0
 10
623.351949
 20
108.470345
 30
0.0
  0
POINT
  5
1416
  8
DEFPOINTS
  6
BYBLOCK
 62
     0
 10
693.646551
 20
108.470345
 30
0.0
  0
ENDBLK
  5
1417
  8
0
  0
ENDSEC
  0
SECTION
  2
ENTITIES
  0
ARC
  5
E5A
  8
0
  6
CONTINUOUS
 10
617.101949
 20
1416.402259
 30
0.0
 40
31.500006
 50
129.360547
 51
140.63967
1001
GRPNAME
1000
PASTMD5C
  0
ARC
  5
E5B
  8
0
  6
CONTINUOUS
 10
617.101949
 20
1416.402259
 30
0.0
 40
31.500006
 50
219.360547
 51
230.639652
1001
GRPNAME
1000
PASTMD5C
  0
CIRCLE
  5
E5C
  8
0
  6
CONTINUOUS
 10
617.101949
 20
1416.402259
 30
0.0
 40
24.5
1001
GRPNAME
1000
PASTMD5C
  0
LINE
  5
E60
  8
0
 10
592.601949
 20
1230.970345
 30
0.0
 11
607.101949
 21
1234.970345
 31
0.0
  0
LINE
  5
E61
  8
0
 10
585.601949
 20
1214.970345
 30
0.0
 11
648.601949
 21
1214.970345
 31
0.0
  0
LINE
  5
E74
  8
0
 10
592.601949
 20
1230.970345
 30
0.0
 11
585.601949
 21
1230.970345
 31
0.0
  0
LINE
  5
E75
  8
0
 10
585.601949
 20
1230.970345
 30
0.0
 11
585.601949
 21
1214.970345
 31
0.0
  0
ARC
  5
E76
  8
0
  6
CONTINUOUS
 10
556.125752
 20
1441.659339
 30
0.0
 40
37.000004
 50
323.20433
 51
351.795828
1001
GRPNAME
1000
PASTMD5C
  0
ARC
  5
E77
  8
0
  6
CONTINUOUS
 10
556.125829
 20
1391.14498
 30
0.0
 40
37.000002
 50
8.20434
 51
36.795906
1001
GRPNAME
1000
PASTMD5C
  0
ARC
  5
E78
  8
0
  6
CONTINUOUS
 10
617.101949
 20
1416.402259
 30
0.0
 40
31.499996
 50
174.360525
 51
185.639613
1001
GRPNAME
1000
PASTMD5C
  0
LINE
  5
E7B
  8
0
 10
621.601949
 20
937.970345
 30
0.0
 11
621.601949
 21
308.470345
 31
0.0
  0
LINE
  5
E7C
  8
0
 10
612.601949
 20
937.970345
 30
0.0
 11
612.601949
 21
308.470345
 31
0.0
  0
LINE
  5
E7F
  8
0
 10
604.101949
 20
122.470345
 30
0.0
 11
604.101949
 21
83.470345
 31
0.0
  0
LINE
  5
E80
  8
0
 10
630.101949
 20
122.470345
 30
0.0
 11
630.101949
 21
83.470345
 31
0.0
  0
LINE
  5
E82
  8
0
 10
606.351949
 20
81.470345
 30
0.0
 11
627.851949
 21
81.470345
 31
0.0
  0
LINE
  5
E83
  8
0
 10
604.101949
 20
83.470345
 30
0.0
 11
630.101949
 21
83.470345
 31
0.0
  0
LINE
  5
E85
  8
0
 10
602.601949
 20
96.243859
 30
0.0
 11
598.601949
 21
96.243859
 31
0.0
  0
LINE
  5
E86
  8
0
 10
602.601949
 20
84.696831
 30
0.0
 11
598.601949
 21
84.696831
 31
0.0
  0
LINE
  5
E87
  8
0
 10
602.601949
 20
96.470345
 30
0.0
 11
602.601949
 21
84.470345
 31
0.0
  0
LINE
  5
E88
  8
0
 10
598.601949
 20
84.696831
 30
0.0
 11
598.601949
 21
96.243859
 31
0.0
  0
LINE
  5
E89
  8
0
 10
602.601949
 20
96.470345
 30
0.0
 11
604.101949
 21
96.470345
 31
0.0
  0
LINE
  5
E8A
  8
0
 10
602.601949
 20
84.470345
 30
0.0
 11
604.101949
 21
84.470345
 31
0.0
  0
LINE
  5
E8B
  8
0
 10
606.351949
 20
81.470345
 30
0.0
 11
606.351949
 21
83.470345
 31
0.0
  0
LINE
  5
E8C
  8
0
 10
627.851949
 20
81.470345
 30
0.0
 11
627.851949
 21
83.470345
 31
0.0
  0
LINE
  5
E8D
  8
0
 10
635.601949
 20
84.696831
 30
0.0
 11
635.601949
 21
96.243859
 31
0.0
  0
LINE
  5
E8E
  8
0
 10
631.601949
 20
96.470345
 30
0.0
 11
630.101949
 21
96.470345
 31
0.0
  0
LINE
  5
E8F
  8
0
 10
631.601949
 20
84.470345
 30
0.0
 11
630.101949
 21
84.470345
 31
0.0
  0
LINE
  5
E90
  8
0
 10
631.601949
 20
96.470345
 30
0.0
 11
631.601949
 21
84.470345
 31
0.0
  0
LINE
  5
E91
  8
0
 10
631.601949
 20
84.696831
 30
0.0
 11
635.601949
 21
84.696831
 31
0.0
  0
LINE
  5
E92
  8
0
 10
631.601949
 20
96.243859
 30
0.0
 11
635.601949
 21
96.243859
 31
0.0
  0
LINE
  5
E93
  8
0
 10
610.851949
 20
308.470345
 30
0.0
 11
610.851949
 21
122.470345
 31
0.0
  0
LINE
  5
E94
  8
0
 10
623.351949
 20
308.470345
 30
0.0
 11
623.351949
 21
122.470345
 31
0.0
  0
LINE
  5
E95
  8
0
 10
604.101949
 20
122.470345
 30
0.0
 11
630.101949
 21
122.470345
 31
0.0
  0
CIRCLE
  5
E96
  8
0
 10
617.101949
 20
114.470345
 30
0.0
 40
1.5
  0
LINE
  5
E98
  8
0
 10
610.851949
 20
308.470345
 30
0.0
 11
623.351949
 21
308.470345
 31
0.0
  0
TEXT
  5
E99
  8
10
 10
1078.159999
 20
1540.000002
 30
0.0
 40
48.0
  1
KH
 72
     2
 11
1147.999999
 21
1540.000002
 31
0.0
 73
     1
  0
LINE
  5
E9C
  8
0
 10
641.601949
 20
1230.970345
 30
0.0
 11
627.101949
 21
1234.970345
 31
0.0
  0
LINE
  5
E9F
  8
0
 10
627.101949
 20
1234.970345
 30
0.0
 11
607.101949
 21
1234.970345
 31
0.0
  0
LINE
  5
EAF
  8
0
 10
648.601949
 20
1230.970345
 30
0.0
 11
648.601949
 21
1214.970345
 31
0.0
  0
LINE
  5
EB0
  8
0
 10
641.601949
 20
1230.970345
 30
0.0
 11
648.601949
 21
1230.970345
 31
0.0
  0
ARC
  5
EB1
  8
0
  6
CONTINUOUS
 10
617.101949
 20
1416.402259
 30
0.0
 40
31.500004
 50
39.360586
 51
50.639652
1001
GRPNAME
1000
PASTMD5C
  0
ARC
  5
EB2
  8
0
  6
CONTINUOUS
 10
617.101949
 20
1416.402259
 30
0.0
 40
31.500004
 50
309.360586
 51
320.639631
1001
GRPNAME
1000
PASTMD5C
  0
ARC
  5
EB3
  8
0
  6
CONTINUOUS
 10
678.078359
 20
1391.145148
 30
0.0
 40
37.000004
 50
143.20433
 51
171.795874
1001
GRPNAME
1000
PASTMD5C
  0
ARC
  5
EB4
  8
0
  6
CONTINUOUS
 10
678.078359
 20
1441.659476
 30
0.0
 40
37.000002
 50
188.20434
 51
216.795888
1001
GRPNAME
1000
PASTMD5C
  0
ARC
  5
EB5
  8
0
  6
CONTINUOUS
 10
617.101949
 20
1416.402259
 30
0.0
 40
31.499995
 50
264.360553
 51
275.639613
1001
GRPNAME
1000
PASTMD5C
  0
ARC
  5
EB6
  8
0
  6
CONTINUOUS
 10
591.844869
 20
1355.426001
 30
0.0
 40
36.999994
 50
53.204349
 51
81.795898
1001
GRPNAME
1000
PASTMD5C
  0
POINT
  5
EB7
  8
10
 10
617.101949
 20
1416.402259
 30
0.0
  0
ARC
  5
EB8
  8
0
  6
CONTINUOUS
 10
642.359029
 20
1355.425849
 30
0.0
 40
36.999993
 50
98.204079
 51
126.795618
1001
GRPNAME
1000
PASTMD5C
  0
ARC
  5
EB9
  8
0
  6
CONTINUOUS
 10
617.101949
 20
1416.402259
 30
0.0
 40
31.499995
 50
84.360553
 51
95.63964
1001
GRPNAME
1000
PASTMD5C
  0
ARC
  5
EBA
  8
0
  6
CONTINUOUS
 10
591.844625
 20
1477.378455
 30
0.0
 40
37.0
 50
278.204316
 51
306.795855
1001
GRPNAME
1000
PASTMD5C
  0
ARC
  5
EBB
  8
0
  6
CONTINUOUS
 10
642.359029
 20
1477.378547
 30
0.0
 40
36.999994
 50
233.204349
 51
261.795851
1001
GRPNAME
1000
PASTMD5C
  0
ARC
  5
EBC
  8
0
  6
CONTINUOUS
 10
617.101949
 20
1416.402259
 30
0.0
 40
31.499995
 50
354.360553
 51
5.63964
1001
GRPNAME
1000
PASTMD5C
  0
LINE
  5
EBF
  8
0
 10
598.101949
 20
1204.970347
 30
0.0
 11
636.101949
 21
1204.970347
 31
0.0
1001
GRPNAME
1000
PASTMD38
  0
LINE
  5
EC0
  8
0
 10
599.101949
 20
1209.556133
 30
0.0
 11
635.101949
 21
1209.556133
 31
0.0
1001
GRPNAME
1000
PASTMD38
  0
LINE
  5
EC3
  8
0
 10
595.601949
 20
960.056131
 30
0.0
 11
638.601949
 21
960.056131
 31
0.0
1001
GRPNAME
1000
PASTMD38
  0
LINE
  5
ED3
  8
0
 10
598.101949
 20
963.970345
 30
0.0
 11
598.101949
 21
1204.970347
 31
0.0
1001
GRPNAME
1000
PASTMD38
  0
ARC
  5
ED4
  8
0
 10
590.601949
 20
944.970345
 30
0.0
 40
3.0
 50
270.0
 51
360.0
1001
GRPNAME
1000
PASTMD38
  0
LINE
  5
ED6
  8
0
 10
577.101949
 20
937.970345
 30
0.0
 11
577.101949
 21
941.970345
 31
0.0
1001
GRPNAME
1000
PASTMD38
  0
LINE
  5
ED9
  8
0
 10
593.601949
 20
960.470345
 30
0.0
 11
597.101949
 21
963.970345
 31
0.0
1001
GRPNAME
1000
PASTMD38
  0
LINE
  5
EDA
  8
0
 10
593.601949
 20
951.025368
 30
0.0
 11
593.601949
 21
960.470345
 31
0.0
1001
GRPNAME
1000
PASTMD38
  0
ARC
  5
EDB
  8
0
 10
594.595836
 20
951.863334
 30
0.0
 40
1.3
 50
195.88085
 51
220.134921
1001
GRPNAME
1000
PASTMD38
  0
ARC
  5
EDC
  8
0
 10
594.595836
 20
956.077356
 30
0.0
 40
1.3
 50
139.865079
 51
164.11915
1001
GRPNAME
1000
PASTMD38
  0
ARC
  5
EDE
  8
0
 10
602.001949
 20
953.970345
 30
0.0
 40
9.0
 50
164.119148
 51
195.880853
1001
GRPNAME
1000
PASTMD38
  0
LINE
  5
EDF
  8
0
 10
593.601949
 20
944.970345
 30
0.0
 11
593.601949
 21
951.025368
 31
0.0
1001
GRPNAME
1000
PASTMD38
  0
LINE
  5
EE5
  8
0
 10
598.101949
 20
1209.970347
 30
0.0
 11
601.101949
 21
1212.970347
 31
0.0
1001
GRPNAME
1000
PASTMD38
  0
ARC
  5
EE7
  8
0
 10
597.095836
 20
1196.863336
 30
0.0
 40
1.3
 50
195.88085
 51
265.0
1001
GRPNAME
1000
PASTMD38
  0
ARC
  5
EE8
  8
0
 10
604.501949
 20
1198.970347
 30
0.0
 40
9.0
 50
164.119148
 51
195.880853
1001
GRPNAME
1000
PASTMD38
  0
ARC
  5
EE9
  8
0
 10
597.095836
 20
1201.077358
 30
0.0
 40
1.3
 50
95.0
 51
164.11915
1001
GRPNAME
1000
PASTMD38
  0
LINE
  5
EEA
  8
0
 10
598.101949
 20
1195.470347
 30
0.0
 11
596.982534
 21
1195.568283
 31
0.0
1001
GRPNAME
1000
PASTMD38
  0
LINE
  5
EEB
  8
0
 10
596.982534
 20
1202.372411
 30
0.0
 11
598.101949
 21
1202.470347
 31
0.0
1001
GRPNAME
1000
PASTMD38
  0
LINE
  5
EF1
  8
0
 10
598.101949
 20
1204.970347
 30
0.0
 11
598.101949
 21
1209.970347
 31
0.0
1001
GRPNAME
1000
PASTMD38
  0
LINE
  5
F54
  8
0
 10
636.101949
 20
963.970345
 30
0.0
 11
636.101949
 21
1204.970347
 31
0.0
1001
GRPNAME
1000
PASTMD38
  0
LINE
  5
F55
  8
0
 10
577.101949
 20
937.970345
 30
0.0
 11
657.101949
 21
937.970345
 31
0.0
1001
GRPNAME
1000
PASTMD38
  0
LINE
  5
F56
  8
0
 10
577.101949
 20
941.970345
 30
0.0
 11
657.101949
 21
941.970345
 31
0.0
1001
GRPNAME
1000
PASTMD38
  0
ARC
  5
F57
  8
0
 10
643.601949
 20
944.970345
 30
0.0
 40
3.0
 50
180.0
 51
270.0
1001
GRPNAME
1000
PASTMD38
  0
LINE
  5
F58
  8
0
 10
597.101949
 20
963.970345
 30
0.0
 11
637.101949
 21
963.970345
 31
0.0
1001
GRPNAME
1000
PASTMD38
  0
LINE
  5
F5B
  8
0
 10
640.601949
 20
951.025368
 30
0.0
 11
640.601949
 21
960.470345
 31
0.0
1001
GRPNAME
1000
PASTMD38
  0
ARC
  5
F5C
  8
0
 10
632.201949
 20
953.970345
 30
0.0
 40
9.0
 50
344.119148
 51
15.880853
1001
GRPNAME
1000
PASTMD38
  0
ARC
  5
F5D
  8
0
 10
639.608061
 20
951.863334
 30
0.0
 40
1.3
 50
319.865079
 51
344.11915
1001
GRPNAME
1000
PASTMD38
  0
ARC
  5
F5E
  8
0
 10
639.608061
 20
956.077356
 30
0.0
 40
1.3
 50
15.88085
 51
40.134921
1001
GRPNAME
1000
PASTMD38
  0
LINE
  5
F60
  8
0
 10
640.601949
 20
960.470345
 30
0.0
 11
637.101949
 21
963.970345
 31
0.0
1001
GRPNAME
1000
PASTMD38
  0
LINE
  5
F61
  8
0
 10
640.601949
 20
944.970345
 30
0.0
 11
640.601949
 21
951.025368
 31
0.0
1001
GRPNAME
1000
PASTMD38
  0
LINE
  5
F63
  8
0
 10
657.101949
 20
937.970345
 30
0.0
 11
657.101949
 21
941.970345
 31
0.0
1001
GRPNAME
1000
PASTMD38
  0
LINE
  5
F6C
  8
0
 10
601.101949
 20
1212.970347
 30
0.0
 11
633.101949
 21
1212.970347
 31
0.0
1001
GRPNAME
1000
PASTMD38
  0
LINE
  5
F6D
  8
0
 10
604.701949
 20
1212.970347
 30
0.0
 11
604.701949
 21
1214.970345
 31
0.0
1001
GRPNAME
1000
PASTMD38
  0
LINE
  5
F76
  8
0
 10
636.101949
 20
1209.970347
 30
0.0
 11
633.101949
 21
1212.970347
 31
0.0
1001
GRPNAME
1000
PASTMD38
  0
LINE
  5
F78
  8
0
 10
629.501949
 20
1212.970347
 30
0.0
 11
629.501949
 21
1214.970347
 31
0.0
1001
GRPNAME
1000
PASTMD38
  0
LINE
  5
F7C
  8
0
 10
636.101949
 20
1195.470347
 30
0.0
 11
637.221364
 21
1195.568283
 31
0.0
1001
GRPNAME
1000
PASTMD38
  0
ARC
  5
F7D
  8
0
 10
637.108061
 20
1196.863336
 30
0.0
 40
1.3
 50
275.0
 51
344.11915
1001
GRPNAME
1000
PASTMD38
  0
ARC
  5
F7E
  8
0
 10
629.701949
 20
1198.970347
 30
0.0
 40
9.0
 50
344.119148
 51
15.880853
1001
GRPNAME
1000
PASTMD38
  0
ARC
  5
F7F
  8
0
 10
637.108061
 20
1201.077358
 30
0.0
 40
1.3
 50
15.88085
 51
85.0
1001
GRPNAME
1000
PASTMD38
  0
LINE
  5
F80
  8
0
 10
637.221364
 20
1202.372411
 30
0.0
 11
636.101949
 21
1202.470347
 31
0.0
1001
GRPNAME
1000
PASTMD38
  0
LINE
  5
F86
  8
0
 10
636.101949
 20
1204.970347
 30
0.0
 11
636.101949
 21
1209.970347
 31
0.0
1001
GRPNAME
1000
PASTMD38
  0
DIMENSION
  5
FB5
  8
5
  2
*D2
 10
427.742382
 20
208.470345
 30
0.0
 11
421.742382
 21
573.220345
 31
0.0
 12
0.0
 22
73.763501
 32
0.0
 70
     0
  1
呼称寸法500mm
 13
577.101949
 23
937.970345
 33
0.0
 14
610.851949
 24
208.470345
 34
0.0
 50
90.0
1001
ACAD
1000
DSTYLE
1002
{
1070
   140
1040
10.0
1070
   283
1070
     0
1070
    40
1040
1.0
1070
   271
1070
     2
1070
   274
1070
     4
1070
   174
1070
     1
1070
   287
1070
     5
1002
}
1001
GENIUS_GENDREL_13
1005
0
1005
11F8
1040
0.0
1001
GENIUS_GENDTOL_13
1000

1000
h7
1000

1040
0.0
1000
呼称寸法500mm
  0
CIRCLE
  5
114B
  8
0
 10
617.101949
 20
1416.402259
 30
0.0
 40
40.0
  0
DIMENSION
  5
11F8
  8
5
  2
*D3
 10
427.742382
 20
1234.970345
 30
0.0
 11
421.742382
 21
1086.470345
 31
0.0
 12
0.0
 22
73.763501
 32
0.0
 70
     0
  1
300
 13
577.101949
 23
937.970345
 33
0.0
 14
607.101949
 24
1234.970345
 34
0.0
 50
90.0
1001
GENIUS_GENDTOL_13
1000

1000
h7
1000

1040
0.0
1000

1001
GENIUS_GENDREL_13
1005
FB5
1005
0
1040
0.0
1001
ACAD
1000
DSTYLE
1002
{
1070
   140
1040
10.0
1070
   283
1070
     0
1070
    40
1040
1.0
1070
   271
1070
     2
1070
   274
1070
     4
1070
   174
1070
     1
1070
   287
1070
     5
1002
}
  0
DIMENSION
  5
1258
  8
5
  2
*D4
 10
648.601949
 20
1266.128827
 30
0.0
 11
617.101949
 21
1272.128827
 31
0.0
 12
0.0
 22
73.763501
 32
0.0
 70
     0
  1
%%c<>
 13
585.601949
 23
1230.970345
 33
0.0
 14
648.601949
 24
1230.970345
 34
0.0
1001
GENIUS_GENDTOL_13
1000

1000
h7
1000

1040
0.0
1000
%%c<>
1001
ACAD
1000
DSTYLE
1002
{
1070
   140
1040
10.0
1070
   283
1070
     0
1070
    40
1040
1.0
1070
   271
1070
     2
1070
   274
1070
     4
1070
   174
1070
     1
1070
   287
1070
     5
1002
}
  0
DIMENSION
  5
1297
  8
5
  2
*D5
 10
657.101949
 20
1289.130052
 30
0.0
 11
617.101949
 21
1295.130052
 31
0.0
 12
0.0
 22
73.763501
 32
0.0
 70
     0
  1
%%c<>
 13
577.101949
 23
941.970345
 33
0.0
 14
657.101949
 24
941.970345
 34
0.0
1001
GENIUS_GENDTOL_13
1000

1000
h7
1000

1040
0.0
1000
%%c<>
1001
ACAD
1000
DSTYLE
1002
{
1070
   140
1040
10.0
1070
   283
1070
     0
1070
    40
1040
1.0
1070
   271
1070
     2
1070
   274
1070
     4
1070
   174
1070
     1
1070
   287
1070
     5
1002
}
  0
DIMENSION
  5
13DE
  8
5
  2
*D6
 10
693.646551
 20
108.470345
 30
0.0
 11
687.645567
 21
208.470345
 31
0.0
 70
     0
  1
<>
 13
623.351949
 23
308.470345
 33
0.0
 14
623.351949
 24
108.470345
 34
0.0
 50
90.0
1001
ACAD
1000
DSTYLE
1002
{
1070
   140
1040
10.0
1070
   283
1070
     0
1070
    40
1040
1.0
1070
   271
1070
     2
1070
   274
1070
     4
1070
   174
1070
     1
1070
   287
1070
     5
1002
}
1001
GENIUS_GENDTOL_13
1000

1000
h7
1000

1040
0.0
1000
<>
  0
POINT
  5
143E
  8
10
 10
617.101949
 20
937.970345
 30
0.0
  0
VIEWPORT
  5
89
 67
     1
  8
0
 10
210.0
 20
148.5
 30
0.0
 40
420.0
 41
297.0
 68
    -1
 69
     1
1001
ACAD
1000
MVIEW
1002
{
1070
    16
1010
0.0
1020
0.0
1030
0.0
1010
0.0
1020
0.0
1030
1.0
1040
0.0
1040
298.282648
1040
210.0
1040
149.141324
1040
50.0
1040
0.0
1040
0.0
1070
     0
1070
   100
1070
     1
1070
     1
1070
     0
1070
     0
1070
     0
1070
     0
1040
0.0
1040
0.0
1040
0.0
1040
10.0
1040
10.0
1040
10.0
1040
10.0
1070
     0
1002
{
1002
}
1002
}
  0
ENDSEC
  0
EOF
